切换到宽版
  • 1327阅读
  • 1回复

魔兽/魔兽争霸.Warcraft.2016.1080p.KORSUB.HDRIP.x264.AAC-Showscen [复制链接]

上一主题 下一主题
?

只看楼主 倒序阅读 使用道具 0?发表于: 2016-07-21
yaH Trh% ?
◎译  名 魔兽/魔兽:崛起(台)/魔兽争霸:战雄崛起(港)/魔兽争霸/魔兽世界 5 l41Q ?
◎片  名 Warcraft .e`,{G(5q7 ?
◎年  代 2016 ]ZzoJ7lr ?
◎国  家 美国/中国/加拿大 r-RCe3%g% ?
◎类  别 动作/奇幻/冒险 87QZun% ?
◎语  言 英语 H+4=|mkQ ?
◎字  幕 韩文(内嵌) Sao>P[ #x ?
◎IMDb评分??7.5/10 from 90,258 users [_y9"MMwn ?
◎IMDb链接??http://www.imdb.com/title/tt0803096/ PUbaS{J7 ?
◎文件格式 x264 x AAC 8{R_6BS ?
◎视频尺寸 1920x800 )t|^Nuj8 ?
◎文件大小 4.42 GiB D 4< -8 ?
◎片  长 2h 1mn -"W)|oC_ ?
◎导  演 邓肯·琼斯 Duncan Jones g3|BE2? ?
◎主  演 崔维斯·费米尔 Travis Fimmel az0cS*@ ?
      托比·凯贝尔 Toby Kebbell mD9STuA$H ?
      宝拉·巴顿 Paula Patton %ZujCZn ?
      吴彦祖 Daniel Wu ,f} h} ?
      本·福斯特 Ben Foster CJzm}'NY ?
      多米尼克·库珀 Dominic Cooper /Zo~1q ?
      鲁丝·内伽 Ruth Negga #v .L$7O ?
      克兰西·布朗 Clancy Brown F\>oxttS1 ?
      丹尼尔·库德摩尔 Daniel Cudmore ds- yif6  ?
      罗伯特·卡辛斯基 Robert Kazinsky K*_-5e ?
      本·施耐泽 Ben Schnetzer 1#grB(p? ?
      格伦·克洛斯 Glenn Close wA?@v|,dZ ?
      考乐姆·吉斯·雷尼 Callum Keith Rennie ~O \}/I28 ?
      泰瑞·诺塔里 Terry Notary {IJ-4> ?
      瑞安·罗宾斯 Ryan Robbins BjM+0[HC ?
      博尔克利·杜菲尔德 Burkely Duffield `vudS? ?
      丹·佩恩 Dan Payne A#<vG1 ?
      迪伦·肖明 Dylan Schombing |2z}Xm5\ ?
      唐尼·麦克尼尔 Donnie MacNeil (~S?
      迈克·安东纳科斯 Mike Antonakos A2Q[%A ?
      拉吉·拉尔 Raj Lal 2 =>*O ?
@4;&hP2Z: ?
◎简  介 #nKRTb+{ ?
cL#-*_ ( ?
  艾泽拉斯与德拉诺本是两颗祥和安宁的星球,人类在艾泽拉斯大陆上世代繁衍生息,兽人则在德拉诺的土地上辛勤耕耘。直到兽人古尔丹(吴彦祖 饰)的出现,打破了两个星球的和平。邪恶的古尔丹为了一己私利,使用恶魔能量打开了一扇传送门——黑暗之门,并残忍的破坏兽人的家园,将原本爱好和平的兽人变成一个个野蛮残暴的战士,迫使他们穿过黑暗之门到达人类的领地作恶。霜狼氏族的酋长杜隆坦(托比·凯贝尔 Toby Kebbell 饰)虽然发现了古尔丹的阴谋却为时已晚,不得不带领着自己的族人离开支离破碎的德拉诺,在举步维艰的艾泽拉斯大陆上寻找着庇护所。面临家园危机的人类在领袖洛萨(崔维斯·费米尔 Travis Fimmel 饰)的带领下一边痛击着野蛮的入侵者,一边苦苦寻求着战争之外的解救方法。两个种族面临着同样的危机,他们能够顺利的渡过这场灾难吗? Z;hyi'rPJ ?
:]'q#$! ?
花絮 o6*/o ]] ?
+9RJ%i&Ec ?
.拍摄地点位于温哥华的加拿大电影公园的某座摄影棚,场地足有12个网球场大小。几十部摄像机加上360度环绕的特效专用蓝幕,构成了迄今为止最大的动作捕捉场景。 l$F_"o?&S@ ?
0f1H8zV ?
.扮演兽人的演员穿着标准的灰色动作捕捉服,电脑搜集他们的骨架数据,并且通过名为“大脑吧”的视觉特效系统塑造了800磅的肌肉,还有獠牙,为此特技演员必须以腰围仿佛增加了一倍的步伐走路。 PNf&@ ?
!~WZ_z ?
.《魔兽世界》的战争已持续11年,回顾电子游戏的历史它无疑是最大赢家之一。开发公司暴雪娱乐每年从600多万玩家那里获得超十亿美元。拥有如此庞大忠实的粉丝,这么长时间才改编电影实在令人惊讶。 GE@uO J6H ?
9qEOgJ ?
.山姆·雷米一度非常接近合适的人选,然而他的构想还是无法与暴雪娱乐服务粉丝的理念达成一致。后来他决定把工作重心转向《魔境仙踪》,于是,两位原本就是魔兽玩家的电影制片人等到了机会。 o~= iy ?
2xDQ :=ec ?
.导演邓肯在魔兽世界游戏中的角色是部落战士,制片人斯图尔特·菲尼根则有个60级人类圣骑士,每周和伙伴们刷两次熔火之心,扮演奥格瑞姆的罗伯特·卡辛斯基拥有全部职业的满级角色。 $57\u/( ?
Rfht\{N 7 ?
.当邓肯·琼斯加入时,剧本仍然倾向于以人类为中心,把人类作为正面人物,兽人作为反面人物。作为一个忠实的部落玩家,邓肯讲影片的主线转变为由冲突的双方引出两条同等重要的故事线。 f3 !n$lj ?
+kM\ D~D1 ?
.片方认为与《指环王》相比,《猩球崛起》和《魔兽世界》的定位更为接近,这是一部比较另类的奇幻电影。兽人不是一群没有个性的敌人,人类和兽人的战争也不再只是善良和邪恶的对抗。 u*hH } ?
?9p$XG ?
.《魔兽世界》不仅要与《指环王》、《权力的游戏》等奇幻作品风格划清界限,还要在游戏改编电影领域创造全新的高度,此前很少有游戏改编电影获得成功。 TFO74^ ?
%VWp&a8 ?
.扮演兽人酋长黑手的克兰西·布朗原本曾经为暴雪曾经打算制作的一款游戏《魔兽争霸:氏族之王》中的主角萨尔配过音,很遗憾这款游戏最终没能面市。 0 sZwdO ?
Rb#/qkk/ ?
.扮演奥格瑞姆的罗伯·卡辛斯基堪称《魔兽世界》游戏的忠实粉丝。他的游戏排名曾一度跻身全球前十,当他第一次走进剧组搭建的王宫大殿场景时,立刻热泪盈眶。 HcA[QBh ?
)S2iIi;Bq ?
.《魔兽世界》电影里准备了给游戏玩家们的彩蛋,另外还有一个彩蛋是献给本片最初的导演人选萨姆·雷米。 Wm(:P ?
mbyih+amCr ?
.暴雪游戏设计师Chris Metzen担任了影片顾问,很多暴雪概念艺术家都参与了影片的场景、道具设计。 y1iX!m~) ?
vevf[eO- ?
.《魔兽世界》并不只是给游戏玩家拍摄的,也是给对这款游戏一无所知的其他电影观众拍摄的。邓肯想成为将游戏翻译成电影的人,让魔兽粉丝能把这部电影展示给那些不了解《魔兽》的人看。 c}%es=@ ?
>Fyu@u ?
.片中将会出现矮人族,但没一个主要的鱼人角色。 '*4iqP R; ?
%*jGim~s ?
.法师麦迪文、统帅安度因·洛萨、国王莱恩·乌瑞恩一世三个人从小一起长大,他们的矛盾贯穿整部影片。 };rm3;~ eg ?
Pg Syt ?
.整部影片的实景拍摄部分只用了两天时间,因为大部分时间都是在摄影棚里。剧组原本也想用真实的森林田野取景,但考虑到与游戏画风的统一,最终还是选择用CG环境。 ugI#ZFjJWE ?
+#~O'r]%GG ?
.影片大部分时间都是在艾泽拉斯,伍德森林、卡拉赞、狮王之傲旅店、黑石等都会出现。艾尔文森林是剧组搭建的最大最全的场景之一,长60米、宽30米,每一片树叶都必须手工绘画。 !Av1Leb9$ ?
8b7;\C~$p ?
.剧组用到了许多真马,它们被牵到剧组搭建的艾尔文森林场景里拍摄骑马飞奔的戏。为了防止马儿受片场噪音惊吓,剧组用卫生棉条做了耳塞。这些马还被扫描进电脑,以制作专属于它们的盔甲。 &Pq\cNYzW ?
Zi/-~')E ?
.影片里的盔甲和武器都是Weta设计制作的。武器大部分都是实物,但是兽人奥格瑞姆的“毁灭之锤”在片中基本是用CG制作的。兽人们的戏服都是在现实中设计、缝纫、制作,然后扫描到电脑里的。 )pS8{c)E ?
Note : the movie have hardcoded Korean subs. <1 S+ ' ?
happy Eid for all Muslims around the world j7}lF?cJ2 ?
T`?n,'!( ?
General "Hht g: ?
Complete name : C:\Users\MrBlu\Desktop\ellen\wrcrft.mp4 cz#_<8'N ?
Format : MPEG-4 FZp<|t ?
Format profile : Base Media ^X &)'H ?
Codec ID : isom akC>s8tqlA ?
File size : 4.42 GiB |'?
Duration : 2h 1mn RM,'o[% ?
Overall bit rate : 5 224 Kbps 2ce'fMV ?
Writing application : Lavf55.37.101 _R74/| ?
s@~/x5jwCs ?
Video ?
ID : 1 t#5:\U5r. ?
Format : AVC Lm|al.Z ?
Format/Info : Advanced Video Codec M"(6&M=? ?
Format profile : High@L5 &$#99\ / ?
Format settings, CABAC : Yes 5 `=KyHi:b ?
Format settings, ReFrames : 8 frames 2 .f|2:I ?
Codec ID : avc1 A"4@L*QV ?
Codec ID/Info : Advanced Video Coding k 4B_W ?
Duration : 2h 1mn KO&:06V{ ?
Bit rate : 5 000 Kbps -k { Jp/-D ?
Width : 1 920 pixels Dtt-|_EMS ?
Height : 800 pixels (6R4 \8z2 ?
Display aspect ratio : 2.40:1 iyj3QLqE ?
Frame rate mode : Constant %S`ik!K"I ?
Frame rate : 29.970 fps jDTUXwx7V ?
Color space : YUV \Y e%o}.{ ?
Chroma subsampling : 4:2:0 lKWr=k~ ?
Bit depth : 8 bits lzDdD3Ouc ?
Scan type : Progressive =}R~0|^ ?
Bits/(Pixel*Frame) : 0.109 $.:3$et@/ ?
Stream size : 4.19 GiB (95%) cPuHLwwYf ?
Writing library : x264 core 119 VR4%v9[1 ?
G),db%,X2 ?
Audio _- %d9@x ?
ID : 2 _z8;lt  ?
Format : AAC `6F +Rrn ?
Format/Info : Advanced Audio Codec d>!p=O`>{q ?
Format profile : LC !ZrB^?sO ?
Codec ID : 40 ezZph"& ?
Duration : 2h 1mn A[H;WKn0 ?
Duration_LastFrame : -13ms bulboyA&# ?
Bit rate mode : Constant U$'y_}V ?
Bit rate : 257 Kbps 5pJ*1pfeo ?
Channel(s) : 2 channels R 1'`F{56 ?
Channel positions : Front: L R LgHJo-+> ?
Sampling rate : 44.1 KHz V@Wcb$mgk ?
Compression mode : Lossy "HC)/)Mv@ ?
Stream size : 223 MiB (5%) gs`> C( ?
{?i)K X^ ?
 O ?
frqJN ?
本部分内容设定了隐藏,需要回复后才能看到

只看该作者 1?发表于: 08-27
看看下载源还可以下载吧